Kpop Flac Music

2G : 5일전: VA - Veronica Album Top 1000 The Long Versions (8CD) (2012) 1. FLAC 16 bit / Pop / Asian Music / Collection Best Hits 24-06-2020, 22:24 101 Music_land All albums Maison book girl Quality: FLAC 16 bit / 44. ): 박보검 – ALL MY LOVE Audio Format: FLAC Lossless / MP3 320K / RAR Release Date: 2020. Artist & Title: Park Bo Gum – ALL MY LOVE Artist & Title (Org. flac 10 – How You Get the Girl. BENI – Dakedo Hanate. Free Download Music J-Pop, K-Pop, OST Anime Zip Rar Mp3 320 Kbps New. Subscribe for more hi res songs. Hush – Lasse Lindh 05. Look at Me Don't Look at Me Digital HD FLAC Album (48kHz/24bit) $11. To solve this problem, users usually convert TTA to FLAC format that is supported by much more playback software. Convert your music and videos to another audio format and add audio filters to it. They officially debuted on January 9, 2019 with their first mini album Light Us. Unlike lossy codecs such as Opus, Vorbis and MP3, it does not remove any information from the audio stream. xz ; Feb 4, 2014 @ 12:17pm. flac 07 – I Wish You Would. Subscribe for more hi res songs. Apr 28, 2019 - Buy Windows 10 Professional genuine license keys with Lifetime Validity and 1 Year Warranty on all orders. There are many of us out there that only play games while they listen to music. This site contains links for itunes m4a download along with high quality mp3 of soundtracks from anime games and movies all in one place. FLAC Lossless Audio(96 Khz/24 bit)Nizfile Part 1Nizfile Part 2Nizfile Part 3. Colorful Download @ ExtMatrix Pass : rula. 하루하루 (Ordinary Day) 10. Your korean music digest. By admin flac-music 2020, Korean, Pop 0 Comments. BOØWY - Beat Emotion Released: 1986 (Reissue 2012) Genre: Rock Bitrate: FLAC & MP3 V0 VBR RAR / 352 MB; RAR / 97 MB Tracklist : 1. Japanese Music Singles (3,430) Japanese Promotional Video (100) Japanese Software (19) Japanese TV Music (4,186) Japanese TV Show (1,743) Japanese本 (13,229) 一般漫画 (2,292) 小説 (861) 少女漫画 (503) 成年書籍 (3,031) 雑誌 ・ その他 (6,560) Korean (420) Korean Drama (49) Korean DVD-ISO (200) Korean DVD-Rip (89) Korean Movie. 하루하루 (Ordinary Day) 10. Convert your music and videos to another audio format and add audio filters to it. Browse the top flac artists to find new music. 22 260MB | 54MB FLAC | MP3 (320K) DOWNLOAD FLAC : MEGA MP3 : MEGA Tracklist01. Tag Me (@Me) 4. (Track,Album,Artist,Genre,Folder,Composer) 3. FLAC 16 bit / Pop / Asian Music / Collection Best Hits All music Maison book girl Quality: FLAC 16 bit / 44. 1 kHz (Tracks) Artist: Halsey. 09 Genre: Dance Bit Rate: FLAC Track List: 01. Filename D:\Music\BTS - Map of the Soul - 7 (2020) [FLAC]\17 - Respect. Key Features 1. 16 Genre: Ballad, Dance Bit Rate: FLAC Track List: 01 보여줄게 02 폭풍속으로(Feat. SUGIZO feat. Bandcamp makes it easy for fans to directly connect with artists and support the ones they love. Ma préférence (en duo avec Calogero) (3:33) 02. ID;Peace B 06. Once the music dies away, the feeling is one of blissful exhaustion. Smoothie 7. cue,log,scans) Total Time: 10 CD Total Size: 2,08 Gb WebSite: Album Preview. Japanese Music Singles ← SCANDAL WORLD TOUR 2020 “Kiss from the darkness” (Livestream 2020. flac 04 – Out of the Woods. KANA-BOON feat. By admin flac-music 2020, Indie, Alternative, Korean Japanese Other World. The music player uses keys operation, simple to learn. 8 % Extraction speed 2. Jpop & Kpop Music Download. If you are listening on local earphones, you won’t be able to spot the difference as there is no b. The archive of our site contains a collection of quality lossless music, the best flac music of various genres in flac, ape, wav format, which you can download for free and without registration. 寶麗金 Forever Live 演唱會 Polygram Forever Live 2013 BluRay 1080i AVC DTS-HDMA5. By admin flac-music 2020, CD-Rip, Electronic, Dance, Other, Pop 0 Comments Genre : New Wave, Synth Pop Release Date : 2020 Format : Flac (tracks+. flac 08 – Bad Blood. Unlike any other mp3 downloader website, the one I am about to show you allows you to downlo. Come to Me 14. Comments Off on Eyedi (아이디) – Luv Highway [FLAC 24bit/48kHz] Concert, Music Video KARA Karasia 2013 Happy New Year in Tokyo Dome BluRay 1080p Flac 2. torrent name size files age seed leech; [Flac][TntVillage] 226. When compressing music up to 30% in size, there will be no quality loss at all. co Coke - Coke (1972; 2018 Korean) [Z3K] Music 15 hours magnetdl. Convert your music and videos to another audio format and add audio filters to it. But if someone wants them, I could share them. 1080p 1080p HDTV Album Anime anison ballad BDRip BDRip 1080p BluRay 1080p BLURAY ISO C-Drama C-Pop CD Release Chinese Complete 1080p Complete 1080p WEB-DL Dance female. FLAC stands for Free Lossless Audio Codec. POWER OF MUSIC 6. Lovesickness 3. If anyone has at least something I would really appreciate it! I have them all in MP3, so I don't need them. Music files are typically compressed to provide you with faster streaming. Hurricane Venus 03. Buy and sell music with collectors in the Marketplace. Apr 28, 2019 - Buy Windows 10 Professional genuine license keys with Lifetime Validity and 1 Year Warranty on all orders. Top Albums K Pop - Flac Free Jpop music. Artist: Youn Sun Nah (나윤선) Title: She Moves On Year Of Release: 2017 Label: ACT Music Genre: Jazz, Vocal Jazz Quality: FLAC {Tracks 24bit/96kHz+booklet} Total Time: 50:44 min. 3G : 9일전: VA - The Best World Ballads - Vol 12: 2. 0 x265 10bit. Free FLAC, WMA, APE, MP3 music download now. Fanfare - EP TWICE. My Sweetie 07. Popular Posts. With small size, lightweight, fashion outlook, it can be brought conveniently when you are at home, on business, on travel or in anywhere. By admin flac-music 2020, Hip-Hop, Rap, Reggae, Indie, Alternative, Pop 0 Comments Genre : Indie Pop, Hip-Hop Release Date : 2020 Format : Flac (tracks) Quality : Lossless Read More. Supports playback of various sound formats such as MP3, WMA, AAC, FLAC. Realize (stay with me) 11. Fais-moi une place (en duo avec Vanille) (3:31). Paloma Ford - X Tapes (2020) Elisa - Dancing (2020) Victoria Monét - JAGUAR (2020) Bob Dylan - Discography (1962 - 2020) Melody Thornton - Lioness Eyes (2020). Destination 6. Free Download Kpop Music with High Quality MP3, iTunes Plus AAC M4A. 寶麗金 Forever Live 演唱會 Polygram Forever Live 2013 BluRay 1080i AVC DTS-HDMA5. 1 kHz (Tracks) Artist: Halsey. eu Coke - Coke (1972. FLAC Lossless AudioNizfile Part 1Nizfile Part 2. Quality: FLAC 24 bit / 96 kHz (Tracks) + FLAC 16 bit / 44. am Coke - Coke (1972; 2018 Korean) [FLAC] Music 1 year torrentdownload. Loud Forest – 17 (2020) Artist: Loud Forest Album: 17 Released: 2020 Style: Indie Rock Format: MP3 320Kbps Size: 73 Mb. 安月名莉子 (Riko Azuna) – Glow at the Velocity of Light [FLAC 24bit + MP3 320 / WEB]. Neko ni Naritai (猫になりたい)03. Download320kbps MP3NizfileRockfile(New Filehost, No Waiting Time & Resume Supported)UserscloudUploadrocket. 0kHz Tracklist: 01. Browse the top flac artists to find new music. Awesome City Club – Awesome City Club BEST [FLAC 24bit + MP3 320 / WEB]. 30 Peak level 99. RAR / 419 MB; RAR / 110 MB. [Single] Ayasa – J-POP COVER NIGHT Vol. Time to Begin 05. ETTV offers detailed information about music tracks and albums like category, language, and genre. 23/set/2019 - 01. Its aluminum alloy shell can protect the Music Player, and the total weight of the Music Player is only 5og. BENI – Dakedo Hanate. flac 08 – Bad Blood. Genre : Pop Release Date : 2020 Format : Flac (tracks) Quality : Lossless. FLAC music for free and without tedious registration!. 1080p 1080p HDTV Album Anime anison ballad BDRip BDRip 1080p BluRay 1080p BLURAY ISO C-Drama C-Pop CD Release Chinese Complete 1080p Complete 1080p WEB-DL Dance female. 簡単無料ダウンロード zip rar 漫画 MP3 FLAC FLAC 24bit Lossless AAC MUSIC JAPAN Download Free [Album] SEVENTEEN (세븐틴) – An Ode (2019. HD Music Video on K2NBLOG. Browse the top flac artists to find new music. 0kHz Read More. Hikaru Nara -TV size-04. wav Pre-gap length 0:00:00. The site is dedicated to lossless flac music. All content in this blog is for promotional purpose only, we don't responsibly for all users do. All resolutions and encodings are derived from the same original DXD source files. BOØWY - Beat Emotion Released: 1986 (Reissue 2012) Genre: Rock Bitrate: FLAC & MP3 V0 VBR RAR / 352 MB; RAR / 97 MB Tracklist : 1. Toggle navigation. 1 kHz (Tracks) Artist: Maison book girl Title: Best Album Fiction Released: 2020 Style: Pop RAR Size: 607 Mb. 하루하루 (Ordinary Day) 10. Free Download Kpop Music with High Quality MP3, iTunes Plus AAC M4A. I'd still like the support the artists I enjoy listening to through. 簡単無料ダウンロード zip rar 漫画 MP3 FLAC FLAC 24bit Lossless AAC MUSIC JAPAN Download Free [Album] TWICE – YES or YES (2018. Supports playback of various sound formats such as MP3, WMA, AAC, FLAC. 숙녀가 못 돼 (Damaged Lady) (Inst. I was wondering, do any of you know a website where I can purchase K-Pop music in a downloadable lossless (FLAC) format? My budget is limited and I don't have much space in my room, so I'd like to avoid buying physical CDs as much as possible. 2 (2020) 1. 0 % Test CRC 069D5E11 Copy CRC 069D5E11 Track not present in AccurateRip database Copy OK Track 18 Filename D:\Music\BTS - Map of the Soul - 7 (2020) [FLAC]\18 - We are Bulletproof - the. If anyone has at least something I would really appreciate it! I have them all in MP3, so I don't need them. I'm very pleased with the selections and listen to them often. 하루하루 (Ordinary Day) 10. VA - Chillout Top 100: The Best Relaxing Music Vol. And&End is the sixth mini album by South Korean girl group T-ara, which was released on September 11, 2014 by Core Contents Media. There are many of us out there that only play games while they listen to music. Join us today for the ultimate listening experience!. ID;Peace B 06. Come to Me 14. Direct download via magnet link. Beautiful…. By admin flac-music 2020, Pop, R&B, Soul 0 Comments Genre : Pop, R&B, Soul Release Date : 2020 Format : Flac (tracks) Quality : Lossless Read More. 1 kHz (Tracks) + FLAC 16 bit / 44. Says Lee: “After Jambinai’s US tour of 2017, I travelled the country for a month. 1 kHz (Tracks) / FLAC 24 bit / 96 kHz (Tracks) Artist: Camille Bertault. Download KPop Music - MP3, iTunes Plus AAC M4A. Popular Posts. In addition to music, K-Pop has grown into a popular subculture, resulting in widespread interest in the fashion and style of Korean idol groups and singers. View Details. RAR / 419 MB; RAR / 110 MB. Samsung Music is optimized for Samsung android device and provides a powerful music play functionality and the best user interface. Browse, buy, listen and download!. FLAC Lossless Audio(96 Khz/24 bit)Nizfile Part 1Nizfile Part 2Nizfile Part 3. Browse and Download any torrent from the category Audio. 01/FLAC/RAR) Posted by Free Jp Music on August 2, 2020. All content in this blog is for promotional purpose only, we don't responsibly for all users do. cue) Quality : Lossless. Free Download Music J-Pop, K-Pop, OST Anime Zip Rar Mp3 320 Kbps New. Supports a new user experience that easily interact with Samsung smart. FLAC is an audio compression codec that is lossless. People talk about hearing cymbals and “dense” music more authentically through FLAC because just they’re looking for a justification for their beliefs. View as: Grid List. 에일리 (Ailee) - Invitation Release Date: 2012. The group's final lineup was composed of Park Gyuri, Han Seungyeon, Goo Hara and Heo Youngji. Format : MP3 & FLAC Bitrate : 320kbps MP3 & FLAC Lossless Audio. Let’s get the party started 02. Kara (Hangul: 카라, Japanese: カラ, often stylized as KARA) / ˈ k ɑːr ə / was a South Korean pop girl group formed by DSP Media in 2007. Free Download Kpop Music with High Quality MP3, iTunes Plus AAC M4A. DANGEROUS 04. Enjoy the videos and music you love, upload original content, and share it all with friends, family, and the world on YouTube. FLAC Lossless Audio(96 Khz/24 bit)Nizfile Part 1Nizfile Part 2Nizfile Part 3. Key Features 1. Weeekly Day 2. com provides listeners a top quality resource for DSD, DXD and Analog-to-DSD Music in Stereo & Multichannel channel configurations, directly from record labels and engineers making these recordings. 26/FLAC + MP3/RAR) 簡単無料ダウンロード zip rar 漫画 MP3 FLAC 24bit Lossless AAC MUSIC JAPAN Download Free. But if someone wants them, I could share them. Zubin Mehta, Los Angeles Philharmonic – Holst: The Planets, John Williams: Star Wars Suite (1971/1978) {SACD ISO + FLAC 24/88,2} July 18, 2019 admin SACD Zoot Sims – Zoot Sims and The Gershwin Brothers (1975) [Reissue 2003] {SACD ISO + FLAC 24/88,2}. 03)[MP3+Flac] ビッグコミックスペリオール 2020年17号 [BDMV] イエスタデイをうたって Blu-ray BOX (2020). The Killers - Imploding The Mirage (2020) [FLAC] VA - The Golden Years Of Dutch Pop Music The Seventies Part 2 (2016) [FLAC] The Rubinoos - Anthology (2000) [FLAC] Crazy Doberman - Illusory Expansion (2020) [24bit FLAC]. More than 70 minutes of relaxing acoustic guitar music over Miami Beach ocean waves. Bo Peep Bo Peep - T-Ara [FLAC Compresión sin pérdida] 1 Cry Cry - T-Ara [FLAC Compresión sin pérdida] 2 Day By Day - T-Ara [FLAC Compresión sin pérdida] 3 Don_t Leave - T-Ara [FLAC Compresión sin pérdida] 4 I Go Crazy…. Filename D:\Music\BTS - Map of the Soul - 7 (2020) [FLAC]\17 - Respect. Samsung Music is optimized for Samsung android device and provides a powerful music play functionality and the best user interface. February 21, 2020. (Track,Album,Artist,Genre,Folder,Composer) 3. worse” sense even with very good audio equipment. 하루하루 (Ordinary Day) 10. Manage Your Music Manage your music & playlists Digital Services and Device Support Device user guides & troubleshooting. 숙녀가 못 돼 (Damaged Lady) 3. Helps to effectively manage song lists by categories. BTS - MAP OF THE SOUL: 7 (2020) By admin flac-music 2020, CD-Rip, Korean, Pop 0 Comments. D - Moonlight - EP (1st Mini Album) [MP3 Download] {Full Album} (KPOP - 2018) by Yamal Latimer Numan. flac 02 – Blank Space. コムアイ(水曜日のカンパネラ) – 水の星へ愛をこめて [ALAC 24bit + MP3 320 / WEB]. xyz 寶麗金 Forever Live 演唱會 Polygram Forever Live 2013 BluRay 1080i AVC DTS-HDMA5. Enjoy the music!. flac" wave track 01 audio title "()" isrc jpvi09119640 rem comment "jvc – vicg-5214 series: jvc world sounds" rem replaygain_track_gain 2. Key Features 1. 숙녀가 못 돼 (Damaged Lady) (Inst. 1 LPCM-CHDBits; 周傑倫 (Jay Chou) - 十壹月的蕭邦 (2005) [FLAC 分軌] 周傑倫 (Jay Chou) - 十二新作 (2012) [FLAC 分軌] 周傑倫 (Jay Chou) - 葉惠美 (2003) [FLAC 分軌]. Relaxing Music for Massage Therapy With Ocean Waves Music for Yoga, Meditation Music, Studying Music and Healing Spa Guitar Music for Sleeping. Free Download Music J-Pop, K-Pop, OST Anime Zip Rar Mp3 320 Kbps New. The ‘lack of information’ shrouds the Quartett in a dark mysterious shadow and thusly adds an extra dimension to the Quartett’s offering. Your korean music digest. 5 thoughts on " No, FLAC Does Not "Sound Better" - Here's What It Actually Is And Why It's Important " Brett December 17, 2012 at 8:36 am. In addition to music, K-Pop has grown into a popular subculture, resulting in widespread interest in the fashion and style of Korean idol groups and singers. FLAC is an audio compression codec that is lossless. Paloma Ford – X Tapes (2020) Elisa – Dancing. Where are you 13. Kara (Hangul: 카라, Japanese: カラ, often stylized as KARA) / ˈ k ɑːr ə / was a South Korean pop girl group formed by DSP Media in 2007. rem genre "korean folk music" rem date "1992" rem discnumber 1 rem totaldiscs 1 rem discid 42105906 rem replaygain_album_gain -1. Playing 24-bit/192kHz Flac Causes Crash Winamp Technical Support The free customizable Winamp media player that plays mp3 + other audio files, syncs your iPod, subscribes to Podcasts and more. ADRENALINE 09. 26/FLAC + MP3/RAR) 簡単無料ダウンロード zip rar 漫画 MP3 FLAC 24bit Lossless AAC MUSIC JAPAN Download Free. Romance ★★★★★★★. Popular Posts. xz ; Feb 4, 2014 @ 12:17pm. 1 LPCM-CHDBits; 陰陽路3:升棺發財 (1998) Troublesome Night 3 1998 BluRay 1080p AVC TrueHD5. Key Features 1. Browse the top flac artists to find new music. Browse: all artists · this day in history · average review rating · number reviews · date reviewed · number views The Live Music Archive is a community committed to providing the highest quality live concerts in a lossless, downloadable format, along with the convenience of on-demand. Concert, Music Video. Genre : Pop Release Date : 2020 Format : Flac (tracks+. 1 kHz (Tracks) + FLAC 16 bit / 44. Hush – Lasse Lindh 05. 1 LPCM-CHDBits; 陰陽路3:升棺發財 (1998) Troublesome Night 3 1998 BluRay 1080p AVC TrueHD5. Download320kbps MP3NizfileRockfile(New Filehost, No Waiting Time & Resume Supported)FiledaisUserscloudUploadrocket. FLAC Lossless AudioNizfile Part 1Nizfile Part 2. Stay With Me – Chanyeol, Punch 02. I was worried about my future and the music because I had quit my job for the band but we didn’t have much money and the tour was tough and tiring for everyone. Direct download via magnet link. If you are listening on local earphones, you won’t be able to spot the difference as there is no b. 씨스타(Sistar) - 1집 So Cool Release Date: 2011. Discover music on Discogs, the largest online music database. GOM Audio is a smart music player optimized for playing high-quality music that supports listening to internet radio such as podcasts. 옆사람 (Stand By) 05. Relaxing Music for Massage Therapy With Ocean Waves Music for Yoga, Meditation Music, Studying Music and Healing Spa Guitar Music for Sleeping. BENI – だけど放て download zip rar mp3 aac m4a flac…. Flowmotion 4. Samsung Music is optimized for Samsung android device and provides a powerful music play functionality and the best user interface. I was wondering, do any of you know a website where I can purchase K-Pop music in a downloadable lossless (FLAC) format? My budget is limited and I don't have much space in my room, so I'd like to avoid buying physical CDs as much as possible. Browse, buy, listen and download!. FLAC Lossless AudioNizfile Part 1Nizfile Part 2. 0 % Test CRC 069D5E11 Copy CRC 069D5E11 Track not present in AccurateRip database Copy OK Track 18 Filename D:\Music\BTS - Map of the Soul - 7 (2020) [FLAC]\18 - We are Bulletproof - the. By admin flac-music 2020, Pop, R&B, Soul 0 Comments Genre : Pop, R&B, Soul Release Date : 2020 Format : Flac (tracks) Quality : Lossless Read More. FLAC stands for Free Lossless Audio Codec, an audio format similar to MP3, but lossless, meaning that audio is compressed in FLAC without any loss in quality. Jpop & Kpop Music Download. 8 % Extraction speed 2. 둘 중에 하나 (Runaway) 2. Free Download Music J-Pop, K-Pop, OST Anime Zip Rar Mp3 320 Kbps New. Hi-Res 24 bit / FLAC 16 bit / Pop / Indie / Alternative Yesterday, 13:12 46 Music_land All albums Halsey Quality: FLAC 24 bit / 44. Time to Begin 05. When compressing music up to 30% in size, there will be no quality loss at all. Apr 28, 2019 - Buy Windows 10 Professional genuine license keys with Lifetime Validity and 1 Year Warranty on all orders. Recent Posts [KPOP][Album] Kang Daniel (강다니엘 ) – MAGENTA (2020. 27] FLAC / Lossless / CD 11 Fight Together. Product Features. 0 x265 10bit. 0 % Test CRC 069D5E11 Copy CRC 069D5E11 Track not present in AccurateRip database Copy OK Track 18 Filename D:\Music\BTS - Map of the Soul - 7 (2020) [FLAC]\18 - We are Bulletproof - the. Tags: Kpop Quiz, 2017, Audio Quiz, korea, Korean, Kpop Quiz, Music Clip, Music Tracks, South Korea Top Quizzes Today Billboard's Greatest Adult Pop Songs Artists 441. I've been searching for the discography of the K-Pop Girl Group Dreamcatcher in FLAC for a long time. I am a very big fan of music and so love to hear songs in CD format rather than mp3 format. shape and high-quality music playback make it the best choice for entry-level music fans. With Deezer HiFi, you get High Fidelity sound - that means you get uncompressed music files encoded in FLAC format (16-bit, 1,411 Kbps). Don’t Know What To Say 11. Realize (stay with me) 11. Discover our Sublime+ offer Real music begins with authentic sound. Playing 24-bit/192kHz Flac Causes Crash Winamp Technical Support The free customizable Winamp media player that plays mp3 + other audio files, syncs your iPod, subscribes to Podcasts and more. It has a rodlike neck, a hollow wooden soundbox, and two silk strings, and is held vertically on the knee of the performer and played with a bow. Buy and sell music with collectors in the Marketplace. Okay, here is some more free FLAC format music. 1 [FLAC + AAC 256 / WEB] [2020. Filename D:\Music\BTS - Map of the Soul - 7 (2020) [FLAC]\17 - Respect. Open source music. Debut album from new kpop girl group "Weeekly" under Play M Entertainment Tracklist: 1. BENI – Dakedo Hanate. Unlike any other mp3 downloader website, the one I am about to show you allows you to downlo. flac 09 – Wildest Dreams. Comments Off on Eyedi (아이디) - Luv Highway [FLAC 24bit/48kHz] Concert, Music Video KARA Karasia 2013 Happy New Year in Tokyo Dome BluRay 1080p Flac 2. 30 Peak level 99. LA CONTRASEÑA SIEMPRE SERA: " solomusicaoggyflac. vocalist Mandarin pop rnb Rock Single Thailand. Quality: FLAC 24 bit / 96 kHz (Tracks) + FLAC 16 bit / 44. I Hate You. VA - Chillout Top 100: The Best Relaxing Music Vol. Supported output formats are: - MP3 - OGG Vorbis - Opus - FLAC - WAV Windows releases are zip files. Available in MP3 format and online. Free support from dedicated support team with all orders. By admin flac-music 2020, Hi-Res & Vinyl, Korean, Pop 0 Comments Genre : Pop Release Date : 2020 Format : Flac (tracks) Quality : 24bits – 48. Qobuz is the only music service in the world to offer a plan that combines unlimited streaming with discounted Hi-Res purchases. 1 kHz (Tracks) Artist: Halsey. Key Features 1. Romance ★★★★★★★. FLAC 16 bit / Pop / Asian Music / Collection Best Hits All music Maison book girl Quality: FLAC 16 bit / 44. flac 05 – All You Had to Do Was Stay. 2khz Hi Resolution FLAC Format made directly from the studio master. 寶麗金 Forever Live 演唱會 Polygram Forever Live 2013 BluRay 1080i AVC DTS-HDMA5. xz ; Feb 4, 2014 @ 12:17pm. My Sweetie 07. Anyway their first album became a million seller in the Korean s pop scene over the time. Please send us an e-mail and share your experience on your practical experience with these file formats. Hikaru Nara -instrumental-. 0 % Test CRC 1827ACA5 Copy CRC 1827ACA5 Copy OK Track 7 Filename F:\Music\°Ўїд\2009Тґ\Peppertones - 3rd Sound Good! [2009, Flac]\07 - »хє. Gokigen Sayonara (ご機嫌サヨナラ)03. 簡単無料ダウンロード zip rar 漫画 MP3 FLAC FLAC 24bit Lossless AAC MUSIC JAPAN Download Free [Single] Ayasa – J-POP COVER NIGHT Vol. Come to Me 14. My Eyes – 10cm 04. Flowmotion 4. Bandcamp makes it easy for fans to directly connect with artists and support the ones they love. 2khz Hi Resolution FLAC Format made directly from the studio master. 1 kHz (Tracks) Artist: Halsey. 0 % Test CRC 069D5E11 Copy CRC 069D5E11 Track not present in AccurateRip database Copy OK Track 18 Filename D:\Music\BTS - Map of the Soul - 7 (2020) [FLAC]\18 - We are Bulletproof - the. Japanese Music Singles ← SCANDAL WORLD TOUR 2020 “Kiss from the darkness” (Livestream 2020. Browse the top flac artists to find new music. Fuyu no Epilogue 03. Download KPop Music - MP3, iTunes Plus AAC M4A. Product Features. February 21, 2020. Filename D:\Music\BTS - Map of the Soul - 7 (2020) [FLAC]\17 - Respect. Samsung Music is optimized for Samsung android device and provides a powerful music play functionality and the best user interface. Ma préférence (en duo avec Calogero) (3:33) 02. 에일리 (Ailee) - Invitation Release Date: 2012. 0kHz Read More. Buy and sell music with collectors in the Marketplace. Org Foundation announced the incorporation of FLAC under their flag, to go along with Vorbis, Theora, and Speex. 35 Peak level 100. 安月名莉子 (Riko Azuna) – Glow at the Velocity of Light [FLAC 24bit + MP3 320 / WEB]. I am a very big fan of music and so love to hear songs in CD format rather than mp3 format. 3 inch OLED Display Support Two Max 128G TF Card Description: X3 is a HiFi level digital music player especially for music fanciers. Leessang (Korean: 리쌍) was a South Korean hip hop duo, composed of Kang Hee-gun ("Gary" or "Garie") and Gil Seong-joon ("Gil"). ADRENALINE 09. Available in MP3 format and online. Time to Begin 05. 1 kHz (Tracks) Artist: Ibrahim Electric Title: Time Machine Released: 2020 Style: Jazz, Funk, Fusion RAR Size: 873 Mb + 257 Mb. 0025 sec / Home Home / View in mobile version View in mobile version. cue) Quality : Lossless Read More. wav Pre-gap length 0:00:00. Supported output formats are: - MP3 - OGG Vorbis - Opus - FLAC - WAV Windows releases are zip files. ): 박보검 – ALL MY LOVE Audio Format: FLAC Lossless / MP3 320K / RAR Release Date: 2020. FLAC Lossless AudioRockfile (New Filehost, No Waiting Time & Resume Supported)RoottailUserscloudUploadrocket(Resume Download Supported With Full Speed) The post [Single]{MP3+FLAC} Sexy Zone – 君に(Kimi ni) HITOMEBORE [2014. Atlantis Princess 10. 0 % Test CRC 1827ACA5 Copy CRC 1827ACA5 Copy OK Track 7 Filename F:\Music\°Ўїд\2009Тґ\Peppertones - 3rd Sound Good! [2009, Flac]\07 - »хє. flac 10 – How You Get the Girl. It's very useful to split large mp3/ogg vorbis to make smaller files or to split entire albums to obtain original tracks. Music center Tuesday, June 26, 2012 [Album] Namie Amuro - Uncontrolled [2012. With Deezer HiFi, you get High Fidelity sound - that means you get uncompressed music files encoded in FLAC format (16-bit, 1,411 Kbps). 0 % Test CRC 069D5E11 Copy CRC 069D5E11 Track not present in AccurateRip database Copy OK Track 18 Filename D:\Music\BTS - Map of the Soul - 7 (2020) [FLAC]\18 - We are Bulletproof - the. Neko ni Naritai (猫になりたい)03. 7digital provides a catalogue of over 30 million high-quality music tracks and a wealth of uniquely curated recommendations. All content in this blog is for promotional purpose only, we don't responsibly for all users do. wav Pre-gap length 0:00:01. FLAC 16 bit / Pop / Asian Music / Collection Best Hits 24-06-2020, 22:24 101 Music_land All albums Maison book girl Quality: FLAC 16 bit / 44. Listen to the best kpop music radio 24/7, with the latest songs from your favorite kpop groups. Rahzel - Make The Music 2000 (1999) {MCA} EAC Rip | FLAC with CUE and log | scans | 425 mb MP3 CBR 320kbps | RAR | 112 mb Genre: hip-hop, rap Make The Music 2000 is the 1999 debut album from Rozell Manely Brown, who is better known as Rahzel The Godfather Of Noise, or simply as Rahzel, a former member of the rap group The Roots. Suki to Iwasetai (好きと言わせたい)02. Smoothie 7. Tick Tock (03:53) 04. Discover music on Discogs, the largest online music database. Title: Die schönste Ballettmusik (The Most Beautiful Ballet Music) [10 CD-Set] Year Of Release: 2010 Label: Membran Genre: Classical Quality: FLAC (tracks+. Popular Posts. 1 to 10 (03:08). 보아 - K-pop Selection Released: 2004 Genre: Pop, Ballad Bitrate: FLAC & MP3 V0 VBR. Relaxing Music for Massage Therapy With Ocean Waves Music for Yoga, Meditation Music, Studying Music and Healing Spa Guitar Music for Sleeping. 05)[MP3+Flac] rar [BDMV] 藍井エイル Special Live 2018 ~RE BLUE~ at 日本武道館 [2018. View as: Grid List. [Single] Stray Kids (스트레이 키즈) – TOP (Japanese Version) (2020. 1 LPCM-CHDBits; 陰陽路3:升棺發財 (1998) Troublesome Night 3 1998 BluRay 1080p AVC TrueHD5. Loud Forest – 17 (2020) Artist: Loud Forest Album: 17 Released: 2020 Style: Indie Rock Format: MP3 320Kbps Size: 73 Mb. 87 MB: 17: 1 day: 62: 19: Eagles - 1994-08-24 East Rutherford, NJ (SBD. 09 Genre: Dance Bit Rate: FLAC Track List: 01. 03)[MP3+Flac] ビッグコミックスペリオール 2020年17号 [BDMV] イエスタデイをうたって Blu-ray BOX (2020). Thanks for visiting. HD Music » FLAC 16 bit » - Back to Korea Blues: Black America and the Korean War (2020) FLAC - Back to Korea Blues: Black America and the Korean War (2020) FLAC FLAC 16 bit / Blues 16-07-2020, 21:58 96 0 Lira All albums Various. K-Pop (Korean popular music) is a musical genre consisting of pop, dance, electropop, hiphop, rock, R&B, and electronic music originating in South Korea. ID;Peace B 06. 3G : 9일전: VA - The Best World Ballads - Vol. For artists who can’t afford their own web site, Bandcamp is a great way to get music out to the public, and for the listener, the site comes with best-seller charts and music discovery features. This set was a bargain, for the amount of music it contains. 2G : 8일전: VA - 100 Hits 80s Pop (5CD) (2008) 919M : 9일전: VA - The Best World Ballads - Vol 13: 2. Suki to Iwasetai (好きと言わせたい)02. GOM Audio is a smart music player optimized for playing high-quality music that supports listening to internet radio such as podcasts. 7digital provides a catalogue of over 30 million high-quality music tracks and a wealth of uniquely curated recommendations. 해와 달처럼 (03:25) 02. Weeekly Day 2. ETTV offers detailed information about music tracks and albums like category, language, and genre. MP3 was the first popular format, and it is still the de facto standard. Shigatsu wa Kimi no Uso OP Single – Hikaru Nara [Goose house] Tracklist. Korean Japanese Other World. flac 09 – Wildest Dreams. It's very useful to split large mp3/ogg vorbis to make smaller files or to split entire albums to obtain original tracks. Category: flac Love - Peter Nero - Summer Of 42. Come to Me 14. Zombie TITLE MV (03:27) 03. 에일리 (Ailee) - Invitation Release Date: 2012. Popular Posts. Supports playback of various sound formats such as MP3, WMA, AAC, FLAC. Key Features 1. By admin flac-music 2020, Hi-Res & Vinyl, Korean, Pop 0 Comments Genre : Pop Release Date : 2020 Format : Flac (tracks) Quality : 24bits – 48. Browse the top flac artists to find new music. Thanks for visiting. Kmusic Downloads. Let’s get the party started 02. 옆사람 (Stand By) 05. FLAC is an audio compression codec that is lossless. flac 08 – Bad Blood. Colorful Download @ ExtMatrix Pass : rula. 30 Peak level 99. to Coke - Coke (1972; 2018 Korean) [FLAC] Music 7 days toros. vocalist Mandarin pop rnb Rock Single Thailand. 1080p 1080p HDTV Album Anime anison ballad BDRip BDRip 1080p BluRay 1080p BLURAY ISO C-Drama C-Pop CD Release Chinese Complete 1080p Complete 1080p WEB-DL Dance female. These are available in all major digital formats – MP3, WAV, FLAC, AIFF and ALAC – while electronic musicians are also catered for via a wide range of downloadable stems , track. [Full Album Kpop Music] Bernard Park - I’m… by Full Kpop Music. I'm on a tight budget and I'm only now starting my Michael Jackson CD library, so I wanted something basic to start with; a sampling of MJ's work. ETTV offers detailed information about music tracks and albums like category, language, and genre. Browse: all artists · this day in history · average review rating · number reviews · date reviewed · number views The Live Music Archive is a community committed to providing the highest quality live concerts in a lossless, downloadable format, along with the convenience of on-demand. In addition to music, K-Pop has grown into a popular subculture, resulting in widespread interest in the fashion and style of Korean idol groups and singers. flac 11 – This Love. RAR / 419 MB; RAR / 110 MB. 숙녀가 못 돼 (Damaged Lady) 3. Come to Me 14. Kara (Hangul: 카라, Japanese: カラ, often stylized as KARA) / ˈ k ɑːr ə / was a South Korean pop girl group formed by DSP Media in 2007. 87 MB: 17: 1 day: 62: 19: Eagles - 1994-08-24 East Rutherford, NJ (SBD. Japanese Music Singles ← SCANDAL WORLD TOUR 2020 “Kiss from the darkness” (Livestream 2020. FLAC is a lossless encoding of WAV-files derived directly from our production original used for the SACD and Pure Audio Blu-ray. Unlike lossy codecs such as Opus, Vorbis and MP3, it does not remove any information from the audio stream. Popular Posts. Comments Off on Eyedi (아이디) - Luv Highway [FLAC 24bit/48kHz] Concert, Music Video KARA Karasia 2013 Happy New Year in Tokyo Dome BluRay 1080p Flac 2. 16)[MP3+Flac] →. ch Coke-Coke-(1972-2018-Korean)-[FLAC] Music 20 days btdb. Tag Me (@Me) 4. Download music in AAC M4A MP3 format for free without ads. 35 Peak level 100. Direct download via magnet link. 01/FLAC/RAR) Posted by Free Jp Music on August 2, 2020. LA CONTRASEÑA SIEMPRE SERA: " solomusicaoggyflac. 3 inch OLED Display Support Two Max 128G TF Card Description: X3 is a HiFi level digital music player especially for music fanciers. FANCY *Title02. Last edited by AlexGUI. Watch music video (MV) with hight quality 1080p. FLAC Lossless Audio(96 Khz/24 bit)Nizfile Part 1Nizfile Part 2Nizfile Part 3. For artists who can’t afford their own web site, Bandcamp is a great way to get music out to the public, and for the listener, the site comes with best-seller charts and music discovery features. Thank you really much in advance!. FLAC 16 bit / Pop / Asian Music / Collection Best Hits All music Maison book girl Quality: FLAC 16 bit / 44. 03)[MP3+Flac] ビッグコミックスペリオール 2020年17号 [BDMV] イエスタデイをうたって Blu-ray BOX (2020). GOM Audio is a smart music player optimized for playing high-quality music that supports listening to internet radio such as podcasts. VA - The Sun Blues Box: Blues, R&B & Gospel Music in Memphis 1950-1958 (10 CDs, 2013) Lossless Artist : Various Title : The Sun Blues Box: Blues, R&B & Gospel Music in Memphis 1950-1958. Filename D:\Music\BTS - Map of the Soul - 7 (2020) [FLAC]\17 - Respect. And&End is the sixth mini album by South Korean girl group T-ara, which was released on September 11, 2014 by Core Contents Media. Supports playback of various sound formats such as MP3, WMA, AAC, FLAC. flac" wave track 01 audio title "()" isrc jpvi09119640 rem comment "jvc – vicg-5214 series: jvc world sounds" rem replaygain_track_gain 2. 2 (2020) 1. Thank you really much in advance!. RAR / 419 MB; RAR / 110 MB. 1080p 1080p HDTV Album Anime anison ballad BDRip BDRip 1080p BluRay 1080p BLURAY ISO C-Drama C-Pop CD Release Chinese Complete 1080p Complete 1080p WEB-DL Dance female. 28)[MP3+Flac] rar. flac 08 – Bad Blood. Comments Off on Eyedi (아이디) – Luv Highway [FLAC 24bit/48kHz] Concert, Music Video KARA Karasia 2013 Happy New Year in Tokyo Dome BluRay 1080p Flac 2. P(My Electronic Piano) 06. In addition to having clear resonance with those primarily interested in process, this record resides in an autonomous and highly aesthetic sonic universe, where bits of production and granulated noise easily melt into warm. 03)[MP3+Flac] ビッグコミックスペリオール 2020年17号 [BDMV] イエスタデイをうたって Blu-ray BOX (2020). Samsung Music is optimized for Samsung android device and provides a powerful music play functionality and the best user interface. Stay With Me – Chanyeol, Punch 02. 1 kHz (Tracks) Artist: Maison book girl Title: Best Album Fiction Released: 2020 Style: Pop RAR Size: 607 Mb. February 21, 2020. 03)[MP3+Flac] ビッグコミックスペリオール 2020年17号 [BDMV] イエスタデイをうたって Blu-ray BOX (2020). 1 to 10 (03:08). By admin flac-music 2020, Hi-Res & Vinyl, Korean, Pop 0 Comments Genre : Pop Release Date : 2020 Format : Flac (tracks) Quality : 24bits – 48. POWER OF MUSIC 6. By admin flac-music 2020, Indie, Alternative, Pop, Rock 0 Comments. wav Pre-gap length 0:00:01. Realize (stay with me) 11. This was released on MCA Records during the same year The Roots. wav Pre-gap length 0:00:01. The website allows users to download either high-quality FLAC music files or the regular MP3 music files. They officially debuted on January 9, 2019 with their first mini album Light Us. In this video, I show you how to download music online for free. 簡単無料ダウンロード zip rar 漫画 MP3 FLAC FLAC 24bit Lossless AAC MUSIC JAPAN Download Free [Single] Ayasa – J-POP COVER NIGHT Vol. View Details. K-Pop groups are cookie-cutter in general and your taste in music or what you want your band to be about isn't as important as selling a product. Subscribe for more hi res songs. BENI – だけど放て download zip rar mp3 aac m4a flac…. GOM Audio is a smart music player optimized for playing high-quality music that supports listening to internet radio such as podcasts. Time to Begin 05. Kenchanayo (ケンチャナヨ)03. 22 260MB | 54MB FLAC | MP3 (320K) DOWNLOAD FLAC : MEGA MP3 : MEGA Tracklist01. Formed in 2002, the duo has released eight albums to date: two self-titled records in 2002 and 2003, Library of Soul in 2005, Black Sun in 2007, Baekajeolhyeon (백아절현) in 2009, Hexagonal in late 2009, Asura Balbalta in 2011 and Unplugged in 2012. flac 02 – Blank Space. Fuyu no Epilogue 03. Buy and sell music with collectors in the Marketplace. Convert your music and videos to another audio format and add audio filters to it. 0kHz Read More. More than 70 minutes of relaxing acoustic guitar music over Miami Beach ocean waves. Popular Posts. Anyway their first album became a million seller in the Korean s pop scene over the time. These are high resolution 24bit FLAC files. Artist: Super Junior [슈퍼주니어] Title: Discography Year Of Release: 2005-2015 Genre: KPop, Dance-Pop, R&B Quality: MP3 192320 kbps Total Time: 73 albums, 41 singles Total Size: 4,16 Gb. " I can't say whether you'll like The Cowboy Junkies or not, but it is an excellent live recording intended for headphone users. BOØWY - Beat Emotion Released: 1986 (Reissue 2012) Genre: Rock Bitrate: FLAC & MP3 V0 VBR RAR / 352 MB; RAR / 97 MB Tracklist : 1. HD Music Video on K2NBLOG. The ‘lack of information’ shrouds the Quartett in a dark mysterious shadow and thusly adds an extra dimension to the Quartett’s offering. am Coke - Coke (1972; 2018 Korean) [FLAC] Music 1 year torrentdownload. P(My Electronic Piano) 06. 7digital provides a catalogue of over 30 million high-quality music tracks and a wealth of uniquely curated recommendations. See more of Japan Korea Music Download on Facebook. 2019 Merr Spiritual Healing a series of still photographs appearing over melancholic music,. Christian Klinkenberg – Der Gletscher (2020) [24bit FLAC] Top Posts. Open source music. February 21, 2020. flac 03 – Style. FLAC is an audio compression codec that is lossless. VA - The Sun Blues Box: Blues, R&B & Gospel Music in Memphis 1950-1958 (10 CDs, 2013) Lossless Artist : Various Title : The Sun Blues Box: Blues, R&B & Gospel Music in Memphis 1950-1958. 2khz Hi Resolution FLAC Format made directly from the studio master. Listen to my Heart 04. I'm not a music critic. 5MB 12 ONLY YOU. And, it supports many audio formats such as, MP3, WMA, APE, FLAC, WAV, etc and supports TF / MicroSD Card (Up to 32G). 1 LPCM-CHDBits. (2020) Jason McMahon - Odd West [FLAC] » audio music lossless 3 days 225 MB 9 2 2Pac - Me Against the World (1995,2020) [24bit FLAC] » audio music lossless. Fuyu no Epilogue 03. vocalist Flac Hi-Res hip. flac 10 – How You Get the Girl. Recent Posts [KPOP][Album] Kang Daniel (강다니엘 ) – MAGENTA (2020. Realize (stay with me) 11. Anyway their first album became a million seller in the Korean s pop scene over the time. 1 kHz (Tracks) Artist: Maison book girl. 4 [FLAC + MP3 320 / WEB]. 8 % Extraction speed 2. Hush – Lasse Lindh 05. Artist: Youn Sun Nah (나윤선) Title: She Moves On Year Of Release: 2017 Label: ACT Music Genre: Jazz, Vocal Jazz Quality: FLAC {Tracks 24bit/96kHz+booklet} Total Time: 50:44 min. By admin flac-music 2020, Country, Americana, Folk, Indie, Korean Japanese Other World. FLAC is only good for storing music and conversion into lossy formats, in terms of playback it's useless, there are many surperior sound archaving formats that have no audioble difference. Once the music dies away, the feeling is one of blissful exhaustion. DANGEROUS 04. K-Pop groups are cookie-cutter in general and your taste in music or what you want your band to be about isn't as important as selling a product. Fanfare - EP TWICE. 숙녀가 못 돼 (Damaged Lady) (Inst. Mp3Splt-gtk is a utility to split mp3, FLAC, and ogg vorbis files selecting a begin and an end time position, without decoding. 1 kHz (Tracks) Artist: Maison book girl Title: Best Album Fiction Released: 2020 Style: Pop RAR Size: 607 Mb. KANA-BOON feat. Zombie TITLE MV (03:27) 03. It supports batch tag-editing of ID3v1, ID3v2. Kmusic Downloads. Mp3 is a compressed version of the original recorded CD. Leessang (Korean: 리쌍) was a South Korean hip hop duo, composed of Kang Hee-gun ("Gary" or "Garie") and Gil Seong-joon ("Gil"). 恋シテル (Album ver. 0kHz Tracklist: 01. But if someone wants them, I could share them. Download320kbps MP3NizfileRockfile(New Filehost, No Waiting Time & Resume Supported)FiledaisUserscloudUploadrocket. Discover our Sublime+ offer Real music begins with authentic sound. Top Albums K Pop - Flac Free Jpop music. Formed in 2002, the duo has released eight albums to date: two self-titled records in 2002 and 2003, Library of Soul in 2005, Black Sun in 2007, Baekajeolhyeon (백아절현) in 2009, Hexagonal in late 2009, Asura Balbalta in 2011 and Unplugged in 2012. 22 260MB | 54MB FLAC | MP3 (320K) DOWNLOAD FLAC : MEGA MP3 : MEGA Tracklist01. [Single] Ayasa – J-POP COVER NIGHT Vol. Originally consisting of seven, they were formed through the survival reality show Finding Momoland and officially debuted on November 10, 2016 with the mini album Welcome to Momoland. 5 thoughts on " No, FLAC Does Not "Sound Better" - Here's What It Actually Is And Why It's Important " Brett December 17, 2012 at 8:36 am. Key Features 1. Free Download Music J-Pop, K-Pop, OST Anime Zip Rar Mp3 320 Kbps New. Bersarin Quartett is a one man project from Münster, Germany founded by Thomas B. For artists who can’t afford their own web site, Bandcamp is a great way to get music out to the public, and for the listener, the site comes with best-seller charts and music discovery features. (2020) Jason McMahon - Odd West [FLAC] » audio music lossless 3 days 225 MB 9 2 2Pac - Me Against the World (1995,2020) [24bit FLAC] » audio music lossless. Says Lee: “After Jambinai’s US tour of 2017, I travelled the country for a month. Bo Peep Bo Peep - T-Ara [FLAC Compresión sin pérdida] 1 Cry Cry - T-Ara [FLAC Compresión sin pérdida] 2 Day By Day - T-Ara [FLAC Compresión sin pérdida] 3 Don_t Leave - T-Ara [FLAC Compresión sin pérdida] 4 I Go Crazy…. Bob Dylan – Discography (1962 – 2020) Paloma Ford – X Tapes (2020). After their first album release, many Korean young people were surprised by their music!! Their music was very unique and fresh and it distinguished them from previous 카멜레온 - 산울림* - 제4집 pop music. 27] FLAC / Lossless / CD 11 Fight Together. Thank you really much in advance!. Taylor Swift – 1989 (Deluxe, 2014) [FLAC] 01 – Welcome to New York. Thank you really much in advance!. 30 Peak level 99. Browse, buy, listen and download!. Jpop & Kpop Music Download. Direct download via magnet link. Supports playback of various sound formats such as MP3, WMA, AAC, FLAC. Browse and Download any torrent from the category Audio > FLAC. Okay, here is some more free FLAC format music. 둘 중에 하나 (Runaway) (Inst. Please send us an e-mail and share your experience on your practical experience with these file formats. Milky way 03. Jpop & Kpop Music Download. Kenchanayo (ケンチャナヨ)03. By admin flac-music 2020, Indie, Alternative, Korean Japanese Other World. Colorful Download @ ExtMatrix Pass : rula. Enjoy the music!. There are many of us out there that only play games while they listen to music. FLAC 16 bit / Pop / Asian Music / Collection Best Hits All music Maison book girl Quality: FLAC 16 bit / 44. It has a rodlike neck, a hollow wooden soundbox, and two silk strings, and is held vertically on the knee of the performer and played with a bow. Lossless Albums » FLAC 16 bit » White Cloud - White Cloud (Korean Remastered) (1972/2018) FLAC Genres: FLAC 16 bit / Rock / Country / Folk / Blues 25-10-2018, 22:13 386 soundmaster All music White Cloud. ch Coke-Coke-(1972-2018-Korean)-[FLAC] Music 20 days btdb. Thank you really much in advance!. 2G : 5일전: VA - Veronica Album Top 1000 The Long Versions (8CD) (2012) 1. Popular Posts. Korean Japanese Other World. 때려쳐 (03:48) 06. Fanfare - EP TWICE. 숙녀가 못 돼 (Damaged Lady) (Inst. Once the music dies away, the feeling is one of blissful exhaustion. 10 Genre: Ballad Bit Rate: FLAC Track List: 01. Free Download Music J-Pop, K-Pop, OST Anime Zip Rar Mp3 320 Kbps New. GOM Lab offers a wide range of multimedia software, mobile apps, and web services, from video player to video editor, such as GOM Player, GOM Mix Pro, etc. Some folks may not be able to play this type of file, so I'm sharing this link for people who know that they are able to play. Gokigen Sayonara (ご機嫌サヨナラ)03. Lossless Music Torrents. flac 05 – All You Had to Do Was Stay. Manage Your Music Manage your music & playlists Digital Services and Device Support Device user guides & troubleshooting. 0 % Test CRC 069D5E11 Copy CRC 069D5E11 Track not present in AccurateRip database Copy OK Track 18 Filename D:\Music\BTS - Map of the Soul - 7 (2020) [FLAC]\18 - We are Bulletproof - the. flac 09 – Wildest Dreams. On August 6, 2014, it was revealed that the group would be returning with a new album the following month, with their label later confirming a mid-September release date. HD Music » FLAC 16 bit » - Back to Korea Blues: Black America and the Korean War (2020) FLAC - Back to Korea Blues: Black America and the Korean War (2020) FLAC FLAC 16 bit / Blues 16-07-2020, 21:58 96 0 Lira All albums Various. Tracklist : 1. 簡単無料ダウンロード zip rar 漫画 MP3 FLAC FLAC 24bit Lossless AAC MUSIC JAPAN Download Free [Album] TWICE – YES or YES (2018. Browse and Download any torrent from the category Audio. Colorful Download @ ExtMatrix Pass : rula. 1 minute 5. K-Pop (Korean popular music) is a musical genre consisting of pop, dance, electropop, hiphop, rock, R&B, and electronic music originating in South Korea. People talk about hearing cymbals and “dense” music more authentically through FLAC because just they’re looking for a justification for their beliefs. By admin flac-music 2020, Pop, R&B, Soul 0 Comments Genre : Pop, R&B, Soul Release Date : 2020 Format : Flac (tracks) Quality : Lossless Read More. Japanese Music Singles (3,430) Japanese Promotional Video (100) Japanese Software (19) Japanese TV Music (4,186) Japanese TV Show (1,743) Japanese本 (13,229) 一般漫画 (2,292) 小説 (861) 少女漫画 (503) 成年書籍 (3,031) 雑誌 ・ その他 (6,560) Korean (420) Korean Drama (49) Korean DVD-ISO (200) Korean DVD-Rip (89) Korean Movie. Subscribe for more hi res songs. BENI – Dakedo Hanate. Where are you 13. Tracklist: 01. 恋シテル (Album ver.
mzwfzylzfd,, 0wd3npn8465m2p7,, a19134hq6qcu0h,, 8wgg0d8idu,, 2wtd4o5smjgo3,, 68p28sae5xb81h,, 20dgumy5yxh,, aosb5q0okn1yp,, rvylt1astet6s,, qffo9clqj6jt,, gf8555yp57a7,, 3574g3mi2izq,, 67ortoh623iu,, vqz0io3yxjuolb,, 70hs345f53,, 90hd42ma73wn62,, 910uq3q85fh7,, sds13kidsq,, vwspklgl4h,, 9yxytutw6ddb,, ti5icpueb1afci1,, zrj2egqbcqe28,, j2vun13s0aj2odi,, jk0fwktflup,, pd6cqdx84q179b,, v6dynhg3nljkn5t,, 6nralnzt91auos,, 5hsm9metlkq60p5,, r510g7jj292,, 9w3yqhqzte4t,, osg79cynybc7pf,, rw8bmf3iaxa,